Ошибка
Загрузка...

Тайна Коко / Coco (Ли Анкрич, Эдриан Молина) [2017, мультфильм, мюзикл, фэнтези, комедия, детектив, приключения, семейный, BDRip 720p] [iTunes][от R.G.TNClub]

Ответить на тему
 
Автор Сообщение

andrua72

Пол: Пол:Муж

Стаж: 1 год 2 месяца

Сообщений: 37

Россия
Рейтинг

post 05-Фев-2018 23:10 3[+]

[Цитировать] 

Тайна Коко
Coco
«The celebration of a lifetime»

Год выпуска: 2017
Страна: США
Жанр: мультфильм, мюзикл, фэнтези, комедия, детектив, приключения, семейный
Продолжительность: 01:45:02
Перевод: Профессиональный (полное дублирование - Невафильм) [iTunes]
Субтитры: Русские, Английские
Режиссер: Ли Анкрич / Lee Unkrich, Эдриан Молина / Adrian Molina
В ролях: Энтони Гонсалес (Miguel, озвучка), Гаэль Гарсиа Берналь (Héctor, озвучка), Бенджамин Брэтт (Ernesto de la Cruz, озвучка), Аланна Юбак (Mamá Imelda, озвучка), Рене Виктор (Abuelita, озвучка), Хайме Камиль (Papá, озвучка), Альфонсо Арау (Papá Julio, озвучка), Херберт Сигенса (Tío Oscar / Tío Felipe, озвучка), Габриэль Иглесиас (Clerk, озвучка), Ломбардо Бойяр (Plaza Mariachi / Gustavo, озвучка), Ана Офелиа Мургуйя (Mamá Coco, озвучка), Наталия Кордова (Frida Kahlo, озвучка)

Роли дублировали: Владимир Баргман (Miguel), Лев Кошкаров (Miguel (вокал)), Виктор Киричёк (Héctor), Михаил Хрусталёв (Ernesto de la Cruz), Елена Шульман (Mamá Imelda), Елена Павловская (Abuelita), Александр Разбаш (Papá), Валентин Морозов (Papá Julio), Максим Сергеев (Tío Oscar / Tío Felipe), Артем Веселов (Clerk; Gustavo; Corrections Officer), Алексей Макрецкий (Plaza Mariachi), Елена Ставрогина (Mamá Coco)
Описание: 12-летний Мигель живёт в мексиканской деревушке в семье сапожников и тайно мечтает стать музыкантом. Тайно - потому что в его семейном клане музыка считается проклятием. Когда-то его прапрадед оставил свою жену, прапрабабку Мигеля, ради мечты, которая теперь не даёт спокойно жить Мигелю. С тех пор музыкальная тема в семье стала табу. Мигель обнаруживает, что между ним и его любимым певцом Эрнесто де ла Крусом, ныне покойным, существует некая - пока неназванная - связь. Паренёк отправляется к своему кумиру в Страну Мёртвых, где встречает души своих предков. Мигель знакомится там с духом-трикстером по имени Гектор (в облике скелета), который становится его проводником. Вдвоём они отправляются на поиски де ла Круса.

Качество: BDRip 720p (Источник: BDRemux 1080p)
Контейнер: MKV
Видео кодек: AVC
Аудио кодек: AC3

Видео: AVC, 1280x536 (2.40:1), 5 973 kbps, 23.976 fps, 0,363 bpp
Аудио №1: Русский / AC3 / 5.1 / 48 kHz / 384 kbps / 16 bit
Аудио №2: Английский / AC3 / 5.1 / 48 kHz / 384 kbps / 16 bit
Рип: Раздача от:

General
Unique ID : 9375341051624025289838184974881952820 (0x70DA00075B7E86BE044F985D16C9434)
Complete name : E:\[email protected]
Format : Matroska
Format version : Version 4 / Version 2
File size : 4.99 GiB
Duration : 1 h 45 min
Overall bit rate : 6 807 kb/s
Movie name : Coco.2017.720p. - [email protected]
Encoded date : UTC 2018-02-17 19:34:56
Writing application : mkvmerge v20.0.0 ('I Am The Sun') 64-bit
Writing library : libebml v1.3.5 + libmatroska v1.4.8

Video
ID : 1
Format : AVC
Format/Info : Advanced Video Codec
Format profile : [email protected]
Format settings, CABAC : Yes
Format settings, ReFrames : 9 frames
Codec ID : V_MPEG4/ISO/AVC
Duration : 1 h 45 min
Bit rate : 5 973 kb/s
Nominal bit rate : 6 500 kb/s
Width : 1 280 pixels
Height : 536 pixels
Display aspect ratio : 2.40:1
Frame rate mode : Constant
Frame rate : 23.976 (24000/1001) FPS
Color space : YUV
Chroma subsampling : 4:2:0
Bit depth : 8 bits
Scan type : Progressive
Bits/(Pixel*Frame) : 0.363
Stream size : 4.38 GiB (88%)
Title : Coco.2017.1080p
Writing library : x264 core 155 r2901M 7d0ff22
Encoding settings : cabac=1 / ref=9 / deblock=1:-1:-1 / analyse=0x3:0x133 / me=umh / subme=11 / psy=1 / psy_rd=1.05:0.15 / mixed_ref=1 / me_range=32 / chroma_me=1 / trellis=2 / 8x8dct=1 / cqm=0 / deadzone=21,11 / fast_pskip=0 / chroma_qp_offset=-3 / threads=6 / lookahead_threads=1 / sliced_threads=0 / nr=0 / decimate=1 / interlaced=0 / bluray_compat=0 / constrained_intra=0 / bframes=5 / b_pyramid=2 / b_adapt=2 / b_bias=0 / direct=3 / weightb=1 / open_gop=0 / weightp=2 / keyint=240 / keyint_min=24 / scenecut=40 / intra_refresh=0 / rc_lookahead=60 / rc=cbr / mbtree=1 / bitrate=6500 / ratetol=1.0 / qcomp=0.70 / qpmin=3 / qpmax=69 / qpstep=4 / vbv_maxrate=6500 / vbv_bufsize=4642 / nal_hrd=none / filler=0 / ip_ratio=1.40 / aq=2:1.00
Language : English
Default : Yes
Forced : No

Audio #1
ID : 2
Format : AC-3
Format/Info : Audio Coding 3
Mode extension : CM (complete main)
Format settings, Endianness : Big
Codec ID : A_AC3
Duration : 1 h 45 min
Bit rate mode : Constant
Bit rate : 384 kb/s
Channel(s) : 6 channels
Channel positions : Front: L C R, Side: L R, LFE
Sampling rate : 48.0 kHz
Frame rate : 31.250 FPS (1536 spf)
Bit depth : 16 bits
Compression mode : Lossy
Stream size : 288 MiB (6%)
Title : iTunes
Language : Russian
Default : Yes
Forced : No

Audio #2
ID : 3
Format : AC-3
Format/Info : Audio Coding 3
Mode extension : CM (complete main)
Format settings, Endianness : Big
Codec ID : A_AC3
Duration : 1 h 45 min
Bit rate mode : Constant
Bit rate : 448 kb/s
Channel(s) : 6 channels
Channel positions : Front: L C R, Side: L R, LFE
Sampling rate : 48.0 kHz
Frame rate : 31.250 FPS (1536 spf)
Bit depth : 16 bits
Compression mode : Lossy
Stream size : 337 MiB (7%)
Title : Original
Language : English
Default : No
Forced : No

Text #1
ID : 4
Format : UTF-8
Codec ID : S_TEXT/UTF8
Codec ID/Info : UTF-8 Plain Text
Duration : 1 s 1 ms
Bit rate : 255 b/s
Count of elements : 1
Stream size : 32.0 Bytes (0%)
Title : Forced
Language : Russian
Default : Yes
Forced : No

Text #2
ID : 5
Format : UTF-8
Codec ID : S_TEXT/UTF8
Codec ID/Info : UTF-8 Plain Text
Duration : 1 h 34 min
Bit rate : 94 b/s
Count of elements : 1168
Stream size : 65.7 KiB (0%)
Title : Full
Language : Russian
Default : No
Forced : No

Text #3
ID : 6
Format : UTF-8
Codec ID : S_TEXT/UTF8
Codec ID/Info : UTF-8 Plain Text
Duration : 1 h 37 min
Bit rate : 63 b/s
Count of elements : 1441
Stream size : 45.6 KiB (0%)
Title : Full
Language : English
Default : No
Forced : No

Text #4
ID : 7
Format : UTF-8
Codec ID : S_TEXT/UTF8
Codec ID/Info : UTF-8 Plain Text
Duration : 1 h 38 min
Bit rate : 77 b/s
Count of elements : 1722
Stream size : 55.9 KiB (0%)
Title : SDH
Language : English
Default : No
Forced : No

Text #5
ID : 8
Format : UTF-8
Codec ID : S_TEXT/UTF8
Codec ID/Info : UTF-8 Plain Text
Duration : 1 h 38 min
Bit rate : 109 b/s
Count of elements : 1723
Stream size : 78.5 KiB (0%)
Title : SDH Colored
Language : English
Default : No
Forced : No

Menu
00:00:00.000 : en:Chapter 1
00:06:40.191 : en:Chapter 2
00:08:41.520 : en:Chapter 3
00:11:13.589 : en:Chapter 4
00:14:20.317 : en:Chapter 5
00:17:06.942 : en:Chapter 6
00:18:20.933 : en:Chapter 7
00:22:05.991 : en:Chapter 8
00:24:19.958 : en:Chapter 9
00:27:44.829 : en:Chapter 10
00:29:07.912 : en:Chapter 11
00:32:15.308 : en:Chapter 12
00:35:18.407 : en:Chapter 13
00:41:25.524 : en:Chapter 14
00:47:04.696 : en:Chapter 15
00:50:54.175 : en:Chapter 16
00:54:23.885 : en:Chapter 17
00:56:45.026 : en:Chapter 18
01:01:42.615 : en:Chapter 19
01:03:28.137 : en:Chapter 20
01:08:58.217 : en:Chapter 21
01:15:17.262 : en:Chapter 22
01:18:56.773 : en:Chapter 23
01:21:31.761 : en:Chapter 24
01:24:31.816 : en:Chapter 25
01:28:23.464 : en:Chapter 26
01:33:14.755 : en:Chapter 27
01:36:10.472 : en:Chapter 28
Пожалуйста, оставайтесь на раздаче как можно дольше!
Релиз специально для Tapochek.net
Все раздачи R.G.TNClub


Оформление by and77200
info [Профиль]  [ЛС] 

rSlade

Пол: Пол:Муж

Стаж: 6 лет 3 месяца

Сообщений: 10

Украина
Рейтинг

post 06-Фев-2018 10:42 (спустя 11 часов) [-]2[+]

[Цитировать] 

Признавайтесь, кто плакал?
info [Профиль]  [ЛС] 

malama

Пол: Пол:Муж

Стаж: 5 лет 4 месяца

Сообщений: 184

Россия
Рейтинг

post 06-Фев-2018 17:02 (спустя 6 часов) [-]3[+]

[Цитировать] 

Изюмительный вариант: небубляж, без рекламы и приемлемого качества, большое спасибо, пойду поплачу.
info [Профиль]  [ЛС] 

jura135

Пол: Пол:Муж

Стаж: 8 лет 3 месяца

Сообщений: 15

Рейтинг

post 18-Фев-2018 14:46 (спустя 11 дней) [-]0[+]

[Цитировать] 

Цитата:

Было дело)) П32
info [Профиль]  [ЛС] 

leSang

Пол: Пол:Муж

Стаж: 9 лет 1 месяц

Сообщений: 1474

Япония
Рейтинг

post 19-Фев-2018 01:06 (спустя 10 часов) [-]2[+]

[Цитировать] 

весь фильм скучал, в конце поплакал

_________________
info [Профиль]  [ЛС] 

BlizarD

Пол: Пол:Муж

Стаж: 5 лет 9 месяцев

Сообщений: 58

Россия
Рейтинг

post 19-Фев-2018 06:11 (спустя 5 часов) [-]0[+]

[Цитировать] 

rSlade писал(а):

Признавайтесь, кто плакал?
посмотрел и поплакал.. на след день опять пересмотрел, и опять поплакал..))
info [Профиль]  [ЛС] 

SirEltonJohn

Пол: Пол:Муж

Стаж: 8 лет 1 месяц

Сообщений: 55

Великобритания
Рейтинг

post 22-Фев-2018 19:52 (спустя 3 дня) [-]0[+]

[Цитировать] 

В конце фильма плакал как маленькая девочка.
info [Профиль]  [ЛС] 

alter87

Пол: Пол:Муж

Стаж: 8 лет 10 месяцев

Сообщений: 88

Россия
Рейтинг

post 24-Фев-2018 21:52 (спустя 2 дня 1 час) [-]0[+]

[Цитировать] 

отличный добрый мультик! всем советую.

_________________
Нельзя едить быстрей, чем летает твой ангел хранитель!
info [Профиль]  [ЛС] 

Remak

Стаж: 9 лет 2 месяца

Сообщений: 471

Рейтинг

post 17-Мар-2018 16:33 (спустя 20 дней) [-]-1[+]

[Цитировать] 

Шикарный мультик и для детей и для взрослых, гда за шуточной детской сказкой скрываются крайне серьёзные темы. Как к примеру рассказать ребёнку о смерти, почему надо заботиться о могиле прабабушки, умершей ещё до его рождения и так далее. Шедевр, Пиксар опять показал себя одним из лидеров мировой анимации. Абсолютно заслуженный оскар. Реально, даже у взрослого мужика может слезинку на глазах вызвать. Как можно красиво, легко, с юмором, но при этом серьёзно объяснив важные и трагические темы рассказать детям о смерти? Вот так. Всегда уважал пиксар, но тут взяли очередную высоту. Рядом с "Вверх", "Рататуем" в топ лучших работ, которые действительно и для детей и для взрослых и с хорошим юмором и с серьёзными темами. Идеальное семейное зрелище, только сначала на первый взгляд кажущееся развлекательным. А по сути серьёзное. Эти ребята доказали в очередной раз, что ещё умеют.
info [Профиль]  [ЛС] 
Показать сообщения:    
Ответить на тему

Текущее время: 27-Май 03:30

Часовой пояс: GMT + 4



Вы не можете начинать темы
Вы не можете отвечать на сообщения
Вы не можете редактировать свои сообщения
Вы не можете удалять свои сообщения
Вы не можете голосовать в опросах
Вы не можете прикреплять файлы к сообщениям
Вы не можете скачивать файлы